Skip to main content

Strangefolk Live at The Wetlands Preserve on 1997-12-31




Set 1

1. Alaska
2. Roads
3. Stout-Hearted
4. Lost My Way
5. Westerly
6. Neighbor
7. Otis*
8. Sad*
9. I Can Get Off on You*
10. Jam > Reuben's Place > Franklins Tower Jam > Reuben's Place

Set 2

1. Valhalla
2. Blue and Grey
3. Country Tune
4. Walnut
5. Come On Down >
6. Two Boys
7. So Far Gone > Symphony > So Far Gone
8. Rather Go Fishin'
9. Bus Driver
10. Speculator
11. All the Same
12. Rachel
13. Lines and Circles > Amazing Grace Lyrics > Lines and Circles

Set 3

1. Strange Ranger
2. Sometimes
3. Like You Anyway
4. Elixir
5. Take it Easy on Me
6. Poland
7. Mama
8. Get Down Tonight
9. So Well > Beautiful People > Funky Town > So Well
10. Encore Break

Encore

11. New York, New York
12. Woke Up


Notes:

*w/ Gordon Stone


Collection Strangefolk
Band/Artist Strangefolk
Venue The Wetlands Preserve
Location New York, NY

Source DSBD (44.1)
Lineage Tascam DA-20 MKII > Tascam HD-P2 > Sony Soundforge 8.0 > CD Wave > Flac
Taped by Mike Wilt
Transferred by Patrick Price


Notes

length expanded size cdr WAVE problems fmt ratio filename
16:02.60 169837964 B --- -- ---xx flac 0.5364 sf1997-12-31s1t01.flac
4:40.68 49551980 B --- -- ---xx flac 0.4841 sf1997-12-31s1t02.flac
6:03.14 64066172 B --- -- ---xx flac 0.5160 sf1997-12-31s1t03.flac
4:40.47 49502588 B --- -- ---xx flac 0.4614 sf1997-12-31s1t04.flac
6:18.01 66681596 B --- -- ---xx flac 0.5046 sf1997-12-31s1t05.flac
13:32.27 143300348 B --- -- ---xx flac 0.4654 sf1997-12-31s1t06.flac
4:13.74 44803292 B --- -- ---xx flac 0.4748 sf1997-12-31s1t07.flac
12:50.04 135837452 B --- -- ---xx flac 0.5260 sf1997-12-31s1t08.flac
4:27.32 47174108 B --- -- ---xx flac 0.4658 sf1997-12-31s1t09.flac
21:12.34 224460812 B --- -- ---xx flac 0.4996 sf1997-12-31s1t10.flac
6:06.57 64696508 B --- -- ---xx flac 0.4478 sf1997-12-31s2t01.flac
5:35.68 59253980 B --- -- ---xx flac 0.4357 sf1997-12-31s2t02.flac
3:07.53 33111500 B --- -- ---xx flac 0.4236 sf1997-12-31s2t03.flac
10:19.34 109271612 B --- -- ---xx flac 0.5119 sf1997-12-31s2t04.flac
7:31.06 79570556 B --- -- ---xx flac 0.4678 sf1997-12-31s2t05.flac
5:12.64 55187372 B --- -- ---xx flac 0.4654 sf1997-12-31s2t06.flac
17:53.15 189312524 B --- -- ---xx flac 0.4657 sf1997-12-31s2t07.flac
4:14.21 44855036 B --- -- ---xx flac 0.4834 sf1997-12-31s2t08.flac
7:20.21 77665436 B --- -- ---xx flac 0.4758 sf1997-12-31s2t09.flac
8:00.36 84756716 B --- -- ---xx flac 0.4033 sf1997-12-31s2t10.flac
3:39.32 38706908 B --- -- ---xx flac 0.5080 sf1997-12-31s2t11.flac
4:38.61 49182716 B --- -- ---xx flac 0.4500 sf1997-12-31s2t12.flac
14:34.36 154258316 B --- -- ---xx flac 0.4493 sf1997-12-31s2t13.flac
7:15.06 76748156 B --- -- ---xx flac 0.4318 sf1997-12-31s3t01.flac
8:07.16 85944476 B --- -- ---xx flac 0.4477 sf1997-12-31s3t02.flac
9:56.32 105209708 B --- -- ---xx flac 0.4928 sf1997-12-31s3t03.flac
4:57.63 52539020 B --- -- ---xx flac 0.4294 sf1997-12-31s3t04.flac
9:58.36 105571916 B --- -- ---xx flac 0.3823 sf1997-12-31s3t05.flac
6:43.66 71244476 B --- -- ---xx flac 0.4801 sf1997-12-31s3t06.flac
9:24.34 99569612 B --- -- ---xx flac 0.4440 sf1997-12-31s3t07.flac
4:58.71 52734236 B --- -- ---xx flac 0.4773 sf1997-12-31s3t08.flac
23:07.54 244793852 B --- -- ---xx flac 0.4551 sf1997-12-31s3t09.flac
2:25.07 25594508 B --- -- ---xx flac 0.3049 sf1997-12-31s3t10.flac
2:53.61 30660716 B --- -- ---xx flac 0.3181 sf1997-12-31s3t11.flac
7:14.47 76668188 B --- -- ---xx flac 0.4757 sf1997-12-31s3t12.flac
289:20.08 3062324356 B 0.4681 (35 files)

Reviews

There are no reviews yet. Be the first one to write a review.
DOWNLOAD OPTIONS
In Collection
Strangefolk
In Collection
Live Music Archive
Uploaded by
pprice
on 8/18/2011
Views
459
Favorites
1
PEOPLE ALSO FOUND
Strangefolk
by Strangefolk
24
0
0
Source: AKG C-1000 > DA-P1 (44.1)
Strangefolk
by Strangefolk
100
0
0
Source: SBD(Cassette) > DA-P1 (48.0)
Strangefolk
by Strangefolk
168
0
0
Source: SBD (cassette master) > DA-P1 (48.0)
Strangefolk
by Strangefolk
36
0
0
Source: DSBD > DA-P1 (48.0)
Strangefolk
by Strangefolk
242
0
0
Source: SBD > SBM-1 > D-8 (44.1)
Strangefolk
by Strangefolk
36
0
0
Source: DSBD
Strangefolk
by Strangefolk
31
0
0
Source: SBD > D-8 (48.0)
Strangefolk
by Strangefolk
43
0
0
Source: Nakamichi 300 (CP-1) > Beyer MV-100 > SBM-1 (48.0)
Strangefolk
by Strangefolk
1,293
0
0
Source: DSBD > DAT (48.0)
Strangefolk
by Strangefolk
43
0
0
Source: DSBD (48.0)